Login
Username:
Password:
Remember Me:
[Signup]
[Recover Account]
Friends
BTScene
Friendly site

Free Courses Online
Friendly site

Anime RG
Friendly site

KaranPC
Friendly site

P2PDL.com
Friendly site

Free Tutorials & Courses
Friendly site
Torrent Details For "The Changeover 2017 1080p WEB-DL DD 5 1 x264"

The Changeover 2017 1080p WEB-DL DD 5 1 x264

To download this torrent, you need a BitTorrent client: Vuze or BTGuard
Download this torrent
Download using Magnet Link





Health:
Seeds: 18
Leechers: 112
Completed: 15 
Last Checked: 08-03-2018 16:51:57

Uploader Reputation points : 2618
External: Torrent




Write a Review for the Uploader:   10   Say Thanks with one good review:


Details
Name:The Changeover 2017 1080p WEB-DL DD 5 1 x264
Description:




General
Format                                   : Matroska
Format version                           : Version 4 / Version 2
File size                                : 1.53 GiB
Duration                                 : 1 h 32 min
Overall bit rate                         : 2 364 kb/s

Video
ID                                       : 1
Format                                   : AVC
Format/Info                              : Advanced Video Codec
Format profile                           : [email protected]
Format settings                          : CABAC / 4 Ref Frames
Format settings, CABAC                   : Yes
Format settings, RefFrames               : 4 frames
Codec ID                                 : V_MPEG4/ISO/AVC
Duration                                 : 1 h 32 min
Bit rate                                 : 2 000 kb/s
Width                                    : 1 912 pixels
Height                                   : 848 pixels
Display aspect ratio                     : 2.25:1
Frame rate mode                          : Constant
Frame rate                               : 23.976 (24000/1001) FPS
Color space                              : YUV
Chroma subsampling                       : 4:2:0
Bit depth                                : 8 bits
Scan type                                : Progressive
Bits/(Pixel*Frame)                       : 0.051
Stream size                              : 1.28 GiB (84%)
Writing library                          : x264 core 148 r2708 86b7198
Default                                  : Yes
Forced                                   : No

Audio
ID                                       : 2
Format                                   : AC-3
Format/Info                              : Audio Coding 3
Codec ID                                 : A_AC3
Duration                                 : 1 h 32 min
Bit rate mode                            : Constant
Bit rate                                 : 384 kb/s
Channel(s)                               : 6 channels
Channel positions                        : Front: L C R, Side: L R, LFE
Sampling rate                            : 48.0 kHz
Frame rate                               : 31.250 FPS (1536 SPF)
Bit depth                                : 16 bits
Compression mode                         : Lossy
Stream size                              : 255 MiB (16%)
Language                                 : English
Service kind                             : Complete Main
Default                                  : Yes
Forced                                   : No

Menu
00:00:00.000                             : en:1
00:09:14.000                             : en:2
00:19:22.000                             : en:3
00:27:02.000                             : en:4
00:36:47.000                             : en:5
00:47:09.000                             : en:6
00:56:24.000                             : en:7
01:07:18.000                             : en:8
01:20:12.000                             : en:9
01:27:33.000                             : en:10








YouTube Video:
Category:Movies
Language:English  English
Total Size:1.53 GB
Info Hash:72D3FD045784F032619F19E29C874036592C5C75
Added By:MovieFreak Verified UploaderMovie Pirate
Date Added:08-03-2018 16:51:35
Torrent Status:Torrent Verified


Ratings:Not Yet Rated (Log in to rate it)


Tracker:
udp://tracker.pirateparty.gr:6969/announce

This Torrent also has backup trackers
URLSeedersLeechersCompleted
udp://tracker.pirateparty.gr:6969/announce3141
udp://tracker.opentrackr.org:1337/announce2151
http://tracker.opentrackr.org/announce000
udp://tracker.vanitycore.co:6969/announce1102
udp://public.popcorn-tracker.org:6969/announce1121
udp://9.rarbg.to:2710/announce000
udp://9.rarbg.me:2710/announce000
udp://9.rarbg.com:2770/announce263
udp://inferno.demonoid.pw:3391/announce272
udp://tracker.internetwarriors.net:1337/announce281
udp://ipv4.tracker.harry.lu:80/announce160
udp://p4p.arenabg.ch:1337/announce2121
http://tracker.vanitycore.co:6969/announce1102
http://public.popcorn-tracker.org:6969/announce1121
udp://tracker.zer0day.to:1337/announce000


File List: 



Warning! Do not Download Torrents Without a VPN!
Your IP Address is .   Location is
Your Internet Provider and Government can track your torrent Activity! Hide your IP ADDRESS with a VPN!
We strongly recommend using SpyOFF VPN to anonymize your Torrenting.It's FREE!
START YOUR FREE TRIAL NOW!


Comments
No comments still posted